#TITLE:都会っ子 纯情;
#SUBTITLE:;
#ARTIST:C-ute;
#TITLETRANSLIT:;
#SUBTITLETRANSLIT:;
#ARTISTTRANSLIT:;
#CREDIT:;
#BANNER: _logo.jpg;
#BACKGROUND: _bg.jpg;
#LYRICSPATH:;
#CDTITLE:Lan.png;
#MUSIC: .mp3;
#OFFSET:-0.040;
#SAMPLESTART:100.000;
#SAMPLELENGTH:12.000;
#SELECTABLE:YES;
#BPMS:0.000=142.020;
#STOPS:;
#BGCHANGES:;
// cache tags:
#FIRSTBEAT:4.000;
#LASTBEAT:321.500;
#SONGFILENAME:Songs/Super Dancer Online/ / .sm;
#HASMUSIC:1;
#HASBANNER:1;
#MUSICLENGTH:140.137;
// end cache tags

//---------------dance-single - sky----------------
#NOTES:
     dance-single:
     sky:
     Hard:
     10:
     0.792,1.000,0.764,0.036,0.574,664.000,107.000,5.000,0.000,15.000:

0000
0000
0000
0000
,
0200
0000
0000
0000
0000
0000
0000
0000
1000
0010
0001
0000
1000
0010
0001
0000
,
1000
0010
0001
0000
1010
0001
0300
0000
0001
0010
0100
0000
0001
0010
0100
0000
,
0001
0010
0100
0000
1000
0000
1000
0000
0100
0000
0100
0000
0010
0010
0001
0000
,
0000
0000
0010
0000
0000
0000
0001
0000
0000
0010
0100
0000
0000
0000
1000
0010
,
0100
0010
0100
0010
0100
0000
0010
0000
0001
0000
1000
0000
0010
0000
0100
0000
,
0011
1000
0001
0010
1100
0001
0010
0100
,
0001
0010
0110
0110
1000
0010
0100
0001
,
1100
0000
0001
0000
0010
0000
0100
0000
1001
0010
0001
0100
0010
0100
1000
0000
,
0101
0010
0001
0000
1000
0000
0100
0000
0010
0000
0001
0001
1100
0000
1100
0000
,
0000
0101
0101
0101
0000
0000
0000
0000
,
0000
0000
0000
0000
0010
0010
0010
0010
1000
0000
0000
0000
0001
0000
0000
0000
,
0100
1000
0010
0001
0000
0100
1000
0000
,
0010
0100
0001
0000
0010
1000
0100
0010
,
1000
0000
0000
0000
0001
0000
1000
0000
0010
0100
1000
0000
0010
0001
0100
0010
,
0001
0100
1000
0000
0010
0000
0100
0000
0001
0000
0000
0000
0010
0000
0000
0000
,
1000
0010
0100
0001
0000
1000
1000
0000
,
0100
0010
0001
0000
0100
1000
0100
0010
,
0100
0010
1000
0001
0010
0100
0001
0000
0000
0000
0120
0000
0100
0000
1000
0000
,
0002
0000
0100
1000
0000
0100
1000
0000
0133
0000
0000
0000
0010
0000
0000
0000
,
1100
0001
0110
1000
,
0101
0010
1100
0001
,
0110
0000
0000
0000
0001
0000
0000
0000
1010
0000
0000
0000
0001
0010
0100
1000
,
0110
0001
0010
0001
0010
0100
0001
1000
0110
0000
0000
0000
1000
0000
0000
0000
,
0101
0010
1001
0100
,
0011
1000
0101
1000
,
0110
0000
0000
0000
0001
0000
0000
0000
0100
1000
0010
0000
0100
0010
0001
0000
,
0100
0010
1000
0000
0001
0100
0010
0000
1000
0000
0000
0000
0001
0000
0000
0000
,
1010
0100
0011
1000
,
0110
0001
1100
0010
,
0101
1000
0011
0100
,
1001
0000
0000
0000
0010
0000
1000
0100
1010
0000
0000
0000
0001
0000
0000
0000
,
0110
1000
0101
0010
,
1001
0100
0011
1000
,
0110
0000
0000
0000
0001
0000
0000
0000
0100
1000
0010
0001
0100
0010
0001
0010
,
0100
1000
0100
0010
0100
0010
0001
0010
1100
0000
0000
0000
0110
0000
0001
0000
,
1100
0010
0100
0010
0011
0100
1000
0010
,
0101
0010
0101
1000
0011
0000
0110
0000
,
0001
0000
0001
0000
,
0001
1100
1100
0010
0110
0000
1001
0000
,
0110
0010
1000
0010
0101
0100
0010
0100
,
1001
0010
0100
1000
0011
0100
1000
0010
,
0101
0000
0010
0000
1010
0000
0001
0000
0100
0010
0001
0010
0100
1000
0100
0010
,
0100
1000
0100
0010
0001
0010
0100
1000
0101
0000
0000
0000
0110
0000
0000
0000
,
0001
0100
1010
0001
0100
1000
0011
0100
,
1000
0000
0010
0000
0110
0000
0100
0000
1001
0000
0000
0000
0000
0000
0001
0010
,
1100
0000
0000
0000
0000
0000
0010
0100
1001
0000
0000
0000
0101
0000
1000
0000
,
0010
0010
0001
0001
0010
0001
1100
0001
,
0001
0000
0010
0000
0110
0000
0000
1000
0010
0001
0000
0000
0100
0000
0000
0000
,
0010
0010
1000
1000
0001
0010
0100
0001
,
0010
0000
1000
0000
0100
0000
0001
0000
0010
0100
1000
0100
0010
0001
0010
0001
,
0100
1000
0100
0010
0001
0000
0000
0000
0010
0000
0100
0000
0010
0000
1000
0000
,
0001
0000
0000
0010
0100
0001
0010
1000
,
0100
0000
0000
0010
0001
0100
1000
0010
,
0100
0000
0000
0001
1000
0100
0001
0010
,
0100
0000
0000
0000
0011
0100
1010
0001
,
1100
0010
0110
1000
0011
0100
1010
0001
,
0110
0010
0101
1000
0011
0100
1001
0010
,
0101
0000
0000
0000
0101
0000
0000
0000
1010
0100
0010
0001
0010
0100
1000
0100
,
0010
0100
0010
0001
0010
0100
0001
0010
1100
0001
0010
0100
1000
0100
0010
0100
,
1010
0100
1000
0100
0010
0001
0010
0100
0011
0100
1000
0100
0010
0001
0010
0100
,
1001
0010
0100
1000
0100
0010
0001
0010
1100
0010
0001
0010
0100
0010
0001
0010
,
1100
0010
0001
0100
0010
0100
1000
0100
0011
0100
0010
0100
1000
0100
0010
0100
,
0011
0100
0010
0001
0010
0100
0010
0100
1010
0100
0010
0001
0010
0001
0010
0100
,
1001
0100
0010
0100
0010
0100
0001
0010
1100
0001
0010
0001
0010
0100
0010
0100
,
0011
0100
1000
0100
1000
0100
0010
0100
1001
0010
0100
0010
0001
0010
0100
1000
,
0110
0001
0010
0100
1000
0100
0010
0100
1010
0000
0000
0000
0001
0000
0000
0000
,
0100
0010
0001
1010
,
0001
0100
0010
1000
0000
0001
0001
0000
,
0100
1000
0001
0000
0010
0100
0001
1000
,
0010
0000
0000
0000
0100
0000
0001
0000
0000
0000
0010
0100
1000
0100
0010
0100
,
0010
0001
0010
0100
1000
0010
0001
0100
0010
0000
0000
0000
1000
0000
0000
0000
,
0001
0010
1000
0001
0000
0100
0100
0000
,
0010
1000
0100
0000
0001
0010
1000
0100
,
0001
0000
0010
0000
1000
0000
0001
0000
0100
0010
0001
0010
0100
1000
0010
0010
,
0001
0010
0100
0010
0100
1000
0010
0001
0110
0000
0010
0000
2101
0000
0010
0000
,
0011
0000
0010
0000
0100
0000
0010
0000
0001
0000
0100
0010
0100
0010
0001
0010
,
0200
0000
0000
0000
0001
0000
0000
0000
0011
0000
0000
0000
0001
0010
0001
0010
,
3301
0010
0100
0010
1000
0100
0010
0001
0100
0010
1000
0100
0010
0001
0010
0100
,
0010
0100
1000
0100
0010
0001
0010
0000
0100
0010
0100
0000
1010
0000
1010
0000
,
0000
0101
0101
0101
0000
0000
0000
0000
;
